<?xml version="1.0" encoding="UTF-8" standalone="no"?>
<!-- Creator: CorelDRAW 2021 (64-Bit) -->

<svg
   xml:space="preserve"
   width="26.277399mm"
   height="26.2773mm"
   version="1.1"
   style="clip-rule:evenodd;fill-rule:evenodd;image-rendering:optimizeQuality;shape-rendering:geometricPrecision;text-rendering:geometricPrecision"
   viewBox="0 0 2627.74 2627.73"
   id="svg190"
   sodipodi:docname="dibujo5.svg"
   inkscape:version="1.3.2 (091e20e, 2023-11-25, custom)"
   xmlns:inkscape="http://www.inkscape.org/namespaces/inkscape"
   xmlns:sodipodi="http://sodipodi.sourceforge.net/DTD/sodipodi-0.dtd"
   xmlns="http://www.w3.org/2000/svg"
   xmlns:svg="http://www.w3.org/2000/svg"><sodipodi:namedview
   id="namedview190"
   pagecolor="#ffffff"
   bordercolor="#000000"
   borderopacity="0.25"
   inkscape:showpageshadow="2"
   inkscape:pageopacity="0.0"
   inkscape:pagecheckerboard="0"
   inkscape:deskcolor="#d1d1d1"
   inkscape:document-units="mm"
   inkscape:zoom="1.0397727"
   inkscape:cx="106.27322"
   inkscape:cy="39.912567"
   inkscape:window-width="1109"
   inkscape:window-height="729"
   inkscape:window-x="285"
   inkscape:window-y="0"
   inkscape:window-maximized="0"
   inkscape:current-layer="Capa_x0020_1" />
 <defs
   id="defs32">
  <font
   id="FontID0"
   horiz-adv-x="401"
   font-variant="normal"
   style="fill-rule:nonzero"
   font-weight="400"
   horiz-origin-x="0"
   horiz-origin-y="0"
   vert-origin-x="512"
   vert-origin-y="768"
   vert-adv-y="1024">
	<font-face
   font-family="Bebas Neue"
   id="font-face1">
		<font-face-src>
			<font-face-name
   name="Bebas Neue Regular" />
		</font-face-src>
	</font-face>
   <missing-glyph
   id="missing-glyph1"><path
     d="M0 0z"
     id="path1" /></missing-glyph>
   <glyph
   unicode="."
   horiz-adv-x="188"
   d="M41.0021 0l106.002 0 0 106.002 -106.002 0 0 -106.002z"
   id="glyph1" />
   <glyph
   unicode="A"
   horiz-adv-x="401"
   d="M11.9988 0l102.002 0 19.9981 137.005 125.006 0 0 1.99981 19.9981 -139.005 110.001 0 -114.001 700.005 -149.004 0 -114.001 -700.005zm135.005 232.002l47.9953 346.003 1.99981 0 49.0013 -346.003 -98.9965 0z"
   id="glyph2" />
   <glyph
   unicode="C"
   horiz-adv-x="383"
   d="M196.005 -9.99903c105.99,0 161.996,63.9938 161.996,171.995l0 99.0086 -104.002 0 0 -107.008c0,-45.9955 -21.9979,-63.9938 -55.0007,-63.9938 -33.0029,0 -55.0007,17.9983 -55.0007,63.9938l0 391.005c0,45.9955 21.9979,64.9998 55.0007,64.9998 33.0029,0 55.0007,-19.0042 55.0007,-64.9998l0 -80.9982 104.002 0 0 73.9928c0,108.002 -56.0067,172.008 -161.996,172.008 -106.002,0 -162.009,-64.0059 -162.009,-172.008l0 -376c0,-108.002 56.0067,-171.995 162.009,-171.995z"
   id="glyph3" />
   <glyph
   unicode="D"
   horiz-adv-x="405"
   d="M41.0021 0l167.996 0c110.001,0 163.996,61.0001 163.996,173.001l0 354.002c0,112.001 -53.9948,173.001 -163.996,173.001l-167.996 0 0 -700.005zm110.001 100.002l0 500 55.9946 0c35.0027,0 56.0067,-17.9983 56.0067,-68.0055l0 -364.001c0,-49.9952 -21.004,-67.9934 -56.0067,-67.9934l-55.9946 0z"
   id="glyph4" />
   <glyph
   unicode="E"
   horiz-adv-x="362"
   d="M41.0021 0l299.995 0 0 100.002 -189.994 0 0 214.997 150.991 0 0 100.002 -150.991 0 0 185 189.994 0 0 100.002 -299.995 0 0 -700.005z"
   id="glyph5" />
   <glyph
   unicode="F"
   horiz-adv-x="344"
   d="M41.0021 0l110.001 0 0 305.001 141.998 0 0 100.002 -141.998 0 0 194.999 181.001 0 0 100.002 -291.002 0 0 -700.005z"
   id="glyph6" />
   <glyph
   unicode="I"
   horiz-adv-x="192"
   d="M41.0021 0l110.001 0 0 700.005 -110.001 0 0 -700.005z"
   id="glyph7" />
   <glyph
   unicode="J"
   horiz-adv-x="265"
   d="M66.9996 -3.99961c108.002,0 159.997,55.0007 159.997,169.996l0 534.009 -110.001 0 0 -537.002c0,-46.0077 -20.9919,-66.9996 -64.9998,-66.9996 -11.9988,0 -23.9977,0.993843 -35.9965,3.99961l0 -100.002c15.9984,-3.00577 31.0031,-3.99961 51.0011,-3.99961z"
   id="glyph8" />
   <glyph
   unicode="L"
   horiz-adv-x="344"
   d="M41.0021 0l291.002 0 0 100.002 -181.001 0 0 600.002 -110.001 0 0 -700.005z"
   id="glyph9" />
   <glyph
   unicode="M"
   horiz-adv-x="537"
   d="M41.0021 0l96.0028 0 0 529.997 1.99981 0 79.9922 -529.997 92.0032 0 80.0044 529.997 1.99981 0 0 -529.997 103.99 0 0 700.005 -156.991 0 -70.0053 -501.006 -1.99981 0 -69.9932 501.006 -157.003 0 0 -700.005z"
   id="glyph10" />
   <glyph
   unicode="N"
   horiz-adv-x="427"
   d="M41.0021 0l98.0026 0 0 511.005 1.99981 0 131.999 -511.005 112.995 0 0 700.005 -98.0026 0 0 -419.002 -1.99981 0 -106.996 419.002 -137.999 0 0 -700.005z"
   id="glyph11" />
   <glyph
   unicode="O"
   horiz-adv-x="399"
   d="M200.005 -9.99903c107.99,0 166.99,63.9938 166.99,175.995l0 368.001c0,112.001 -59.0003,176.007 -166.99,176.007 -108.002,0 -167.002,-64.0059 -167.002,-176.007l0 -368.001c0,-112.001 59.0003,-175.995 167.002,-175.995zm0 100.002c-35.0027,0 -57.0005,18.9921 -57.0005,68.9994l0 381.999c0,49.9952 21.9979,68.9994 57.0005,68.9994 34.9905,0 57.0005,-19.0042 57.0005,-68.9994l0 -381.999c0,-50.0073 -22.01,-68.9994 -57.0005,-68.9994z"
   id="glyph12" />
   <glyph
   unicode="R"
   horiz-adv-x="403"
   d="M41.0021 0l110.001 0 0 299.995 37.9963 0c49.9952,0 68.9994,-20.9919 68.9994,-85.9917l0 -128c0,-57.0005 3.99961,-68.0055 9.99903,-86.0038l112.001 0c-11.005,25.9975 -11.9988,51.0011 -11.9988,84.9978l0 123.006c0,78.9984 -17.9983,130.993 -72.999,147.998l0 1.99981c49.0013,19.9981 71.993,65.9936 71.993,137.999l0 43.0019c0,108.002 -48.9892,161.003 -162.99,161.003l-163.002 0 0 -700.005zm110.001 399.998l0 200.005 49.9952 0c39.0023,0 56.0067,-21.9979 56.0067,-72.0051l0 -53.9948c0,-56.0067 -25.0036,-74.0049 -66.0057,-74.0049l-39.9961 0z"
   id="glyph13" />
   <glyph
   unicode="S"
   horiz-adv-x="372"
   d="M183.994 -9.99903c108.002,0 166.008,63.9938 166.008,177.995 0,87.0097 -29.0032,143.004 -121.006,224.003 -71.993,63 -94.9968,100.002 -94.9968,151.004 0,47.9953 19.9981,66.9996 55.0007,66.9996 35.0027,0 55.0007,-19.0042 55.0007,-68.9994l0 -35.9965 104.002 0 0 28.9911c0,112.001 -53.0009,176.007 -159.997,176.007 -107.008,0 -164.008,-64.0059 -164.008,-174.007 0,-79.9922 29.9971,-136.993 122,-217.991 72.0051,-63 94.003,-100.002 94.003,-158.009 0,-51.995 -21.9979,-69.9932 -57.0005,-69.9932 -35.0027,0 -57.0005,17.9983 -57.0005,67.9934l0 48.0075 -104.002 0 0 -40.0082c0,-112.001 54.0069,-175.995 161.996,-175.995z"
   id="glyph14" />
   <glyph
   unicode="T"
   horiz-adv-x="364"
   d="M127.006 0l109.989 0 0 600.002 115.007 0 0 100.002 -340.003 0 0 -100.002 115.007 0 0 -600.002z"
   id="glyph15" />
   <glyph
   unicode="U"
   horiz-adv-x="401"
   d="M200.999 -9.99903c108.002,0 163.996,63.9938 163.996,175.995l0 534.009 -105.99 0 0 -542.008c0,-49.9952 -21.004,-67.9934 -56.0067,-67.9934 -35.0027,0 -55.9946,17.9983 -55.9946,67.9934l0 542.008 -110.001 0 0 -534.009c0,-112.001 55.9946,-175.995 163.996,-175.995z"
   id="glyph16" />
   <glyph
   unicode="a"
   horiz-adv-x="401"
   d="M11.9988 0l102.002 0 19.9981 137.005 125.006 0 0 1.99981 19.9981 -139.005 110.001 0 -114.001 700.005 -149.004 0 -114.001 -700.005zm135.005 232.002l47.9953 346.003 1.99981 0 49.0013 -346.003 -98.9965 0z"
   id="glyph17" />
   <glyph
   unicode="c"
   horiz-adv-x="383"
   d="M196.005 -9.99903c105.99,0 161.996,63.9938 161.996,171.995l0 99.0086 -104.002 0 0 -107.008c0,-45.9955 -21.9979,-63.9938 -55.0007,-63.9938 -33.0029,0 -55.0007,17.9983 -55.0007,63.9938l0 391.005c0,45.9955 21.9979,64.9998 55.0007,64.9998 33.0029,0 55.0007,-19.0042 55.0007,-64.9998l0 -80.9982 104.002 0 0 73.9928c0,108.002 -56.0067,172.008 -161.996,172.008 -106.002,0 -162.009,-64.0059 -162.009,-172.008l0 -376c0,-108.002 56.0067,-171.995 162.009,-171.995z"
   id="glyph18" />
   <glyph
   unicode="e"
   horiz-adv-x="362"
   d="M41.0021 0l299.995 0 0 100.002 -189.994 0 0 214.997 150.991 0 0 100.002 -150.991 0 0 185 189.994 0 0 100.002 -299.995 0 0 -700.005z"
   id="glyph19" />
   <glyph
   unicode="g"
   horiz-adv-x="391"
   d="M196.999 -9.99903c108.002,0 163.996,63.9938 163.996,175.995l0 229.008 -158.991 0 0 -100.002 55.0007 0 0 -137.005c0,-49.9952 -22.01,-67.9934 -57.0005,-67.9934 -35.0027,0 -57.0005,17.9983 -57.0005,67.9934l0 383.005c0,49.9952 21.9979,68.9994 57.0005,68.9994 34.9905,0 57.0005,-19.0042 57.0005,-68.9994l0 -66.9996 103.99 0 0 59.9942c0,112.001 -55.9946,176.007 -163.996,176.007 -108.002,0 -163.996,-64.0059 -163.996,-176.007l0 -368.001c0,-112.001 55.9946,-175.995 163.996,-175.995z"
   id="glyph20" />
   <glyph
   unicode="h"
   horiz-adv-x="419"
   d="M41.0021 0l110.001 0 0 315 118.001 0 0 -315 110.001 0 0 700.005 -110.001 0 0 -285.003 -118.001 0 0 285.003 -110.001 0 0 -700.005z"
   id="glyph21" />
   <glyph
   unicode="j"
   horiz-adv-x="265"
   d="M66.9996 -3.99961c108.002,0 159.997,55.0007 159.997,169.996l0 534.009 -110.001 0 0 -537.002c0,-46.0077 -20.9919,-66.9996 -64.9998,-66.9996 -11.9988,0 -23.9977,0.993843 -35.9965,3.99961l0 -100.002c15.9984,-3.00577 31.0031,-3.99961 51.0011,-3.99961z"
   id="glyph22" />
   <glyph
   unicode="l"
   horiz-adv-x="344"
   d="M41.0021 0l291.002 0 0 100.002 -181.001 0 0 600.002 -110.001 0 0 -700.005z"
   id="glyph23" />
   <glyph
   unicode="n"
   horiz-adv-x="427"
   d="M41.0021 0l98.0026 0 0 511.005 1.99981 0 131.999 -511.005 112.995 0 0 700.005 -98.0026 0 0 -419.002 -1.99981 0 -106.996 419.002 -137.999 0 0 -700.005z"
   id="glyph24" />
   <glyph
   unicode="o"
   horiz-adv-x="399"
   d="M200.005 -9.99903c107.99,0 166.99,63.9938 166.99,175.995l0 368.001c0,112.001 -59.0003,176.007 -166.99,176.007 -108.002,0 -167.002,-64.0059 -167.002,-176.007l0 -368.001c0,-112.001 59.0003,-175.995 167.002,-175.995zm0 100.002c-35.0027,0 -57.0005,18.9921 -57.0005,68.9994l0 381.999c0,49.9952 21.9979,68.9994 57.0005,68.9994 34.9905,0 57.0005,-19.0042 57.0005,-68.9994l0 -381.999c0,-50.0073 -22.01,-68.9994 -57.0005,-68.9994z"
   id="glyph25" />
   <glyph
   unicode="p"
   horiz-adv-x="385"
   d="M41.0021 0l110.001 0 0 285.003 51.995 0c110.001,0 163.996,61.0001 163.996,173.001l0 68.9994c0,112.001 -53.9948,173.001 -163.996,173.001l-161.996 0 0 -700.005zm110.001 385.005l0 214.997 51.995 0c35.0027,0 54.0069,-15.9984 54.0069,-66.0057l0 -82.998c0,-49.9952 -19.0042,-65.9936 -54.0069,-65.9936l-51.995 0z"
   id="glyph26" />
   <glyph
   unicode="r"
   horiz-adv-x="403"
   d="M41.0021 0l110.001 0 0 299.995 37.9963 0c49.9952,0 68.9994,-20.9919 68.9994,-85.9917l0 -128c0,-57.0005 3.99961,-68.0055 9.99903,-86.0038l112.001 0c-11.005,25.9975 -11.9988,51.0011 -11.9988,84.9978l0 123.006c0,78.9984 -17.9983,130.993 -72.999,147.998l0 1.99981c49.0013,19.9981 71.993,65.9936 71.993,137.999l0 43.0019c0,108.002 -48.9892,161.003 -162.99,161.003l-163.002 0 0 -700.005zm110.001 399.998l0 200.005 49.9952 0c39.0023,0 56.0067,-21.9979 56.0067,-72.0051l0 -53.9948c0,-56.0067 -25.0036,-74.0049 -66.0057,-74.0049l-39.9961 0z"
   id="glyph27" />
   <glyph
   unicode="s"
   horiz-adv-x="372"
   d="M183.994 -9.99903c108.002,0 166.008,63.9938 166.008,177.995 0,87.0097 -29.0032,143.004 -121.006,224.003 -71.993,63 -94.9968,100.002 -94.9968,151.004 0,47.9953 19.9981,66.9996 55.0007,66.9996 35.0027,0 55.0007,-19.0042 55.0007,-68.9994l0 -35.9965 104.002 0 0 28.9911c0,112.001 -53.0009,176.007 -159.997,176.007 -107.008,0 -164.008,-64.0059 -164.008,-174.007 0,-79.9922 29.9971,-136.993 122,-217.991 72.0051,-63 94.003,-100.002 94.003,-158.009 0,-51.995 -21.9979,-69.9932 -57.0005,-69.9932 -35.0027,0 -57.0005,17.9983 -57.0005,67.9934l0 48.0075 -104.002 0 0 -40.0082c0,-112.001 54.0069,-175.995 161.996,-175.995z"
   id="glyph28" />
   <glyph
   unicode="t"
   horiz-adv-x="364"
   d="M127.006 0l109.989 0 0 600.002 115.007 0 0 100.002 -340.003 0 0 -100.002 115.007 0 0 -600.002z"
   id="glyph29" />
   <glyph
   unicode="u"
   horiz-adv-x="401"
   d="M200.999 -9.99903c108.002,0 163.996,63.9938 163.996,175.995l0 534.009 -105.99 0 0 -542.008c0,-49.9952 -21.004,-67.9934 -56.0067,-67.9934 -35.0027,0 -55.9946,17.9983 -55.9946,67.9934l0 542.008 -110.001 0 0 -534.009c0,-112.001 55.9946,-175.995 163.996,-175.995z"
   id="glyph30" />
   <glyph
   unicode="v"
   horiz-adv-x="381"
   d="M118.001 0l145.998 0 106.002 700.005 -100.996 0 -72.0051 -543.002 -1.99981 0 -72.0051 543.002 -110.995 0 106.002 -700.005z"
   id="glyph31" />
   <glyph
   unicode="í"
   horiz-adv-x="192"
   d="M35.9965 746.994l82.998 0 107.008 115.007 -120 0 -70.0053 -115.007zm5.00558 -746.994l110.001 0 0 700.005 -110.001 0 0 -700.005z"
   id="glyph32" />
  </font>
</defs>
</svg>
